X265 Bit Depth



B The maximum frame rate supported by HEVC is 300 fps. This Deck Jig™ drill bit and the KTX driver bit that came with your Deck Jig™ are fully compatible with standard 1/4" (6mm) Quick-Change chucks. If you have a HW decoder that can deal with 10 bit, displaying it on an 8 bit display (like. Google Drive - Man. I've tried re-encoding some x265 10bit content in avidemux. 5 + libmatroska v1. Encoded with x265 in HEVC, 10 bit color, using time consuming tweeked veryslow 2-pass at 8000 kbps bitrate from a Blu-ray source for the highest quality possible! Included Chinese Main audio (FLAC 2. 2020 Transfer characteristics : PQ Matrix coefficients : BT. 9+3 – all of them failed to download (tojan: Win32/Spursint. 9+3 GCC 64 bit 10 bit 1. 4 Mb/s Width : 3 840 pixels Height : 2 160 pixels Display aspect ratio : 16:9 Frame rate mode : Constant Frame rate : 24. 038 Stream size : 515 MiB (73%) Writing library : x265 3. Both outputs are 1280x720. In order to understand additional details about 8-bit vs. 976fps) 19:14:38. exe with those bit depths and are used by those who prefer to encode their own video files. rzcat commented on Mar 9, 2017 •. Clark Kent| one of the last of an extinguished race disguised as an unremarkable human| is forced to reveal his identity when Earth is invaded by an army ofsurv Man. Overall bit rate : 1 413 kb/s Encoded date : UTC 2019-11-07 06:45:54 Writing application : mkvmerge v38. Verified This commit was created on GitHub. The number of bits used to represent each color determines the range of shades one can generate. Overall bit rate : 1 640 kb/s Encoded date : UTC 2018-01-15 06:31:58 Writing application : mkvmerge v15. Format version : Version 4. 264, or MPEG-4 Part 10). Our Center/Depth Gauge makes setting both easy and accurate. The color bit depth required per channel is 8 bits, for a total of 24 bits. Quality: 1080p Bluray: Size: 3. for example:-. 4 Mb/s Width : 3 840 pixels Height : 2 160 pixels Display aspect ratio : 16:9 Frame rate mode : Constant Frame rate : 24. On 10-bit (Foodmarket) results are even larger. GCC 64 bit 8 bit 1. 9+3 – all of them failed to download (tojan: Win32/Spursint. Bit depth is the amount of color information contained in each pixel in an image. Inputs are sample rate (Hz), bit depth (bits), and the number of channels (mono = 1, stereo = 2, multi-track > 2). 0 (‘No Deeper Escape’) 64-bit. 8+42-8bf51aa8a170:[Windows][MSVC 1900][64 bit] 10bit. 01 GiB (84%) Writing library : x265 2. Your cameras, screens are all 8-bit. 6 adds the additional planar color spaces (Y8,YV16,YV24, YV411) which makes it that much more compatible with all of the existing formats. 5+1-ce882936d:[Windows][MSVC 1928][64 bit] 10bit. pc file will be installed to; Verify the NASM_EXECUTABLE property is pointing the location where you installed NASM. 2020 color space. 1-SWTYBLZ File name : Terminator. Overall bit rate : 1 429 kb/s Raising. Bit depth : 10 bits Bits/(Pixel*Frame) : 0. Patch Date Submitter Delegate State [x265,253,of,307] x86: AVX512 optimise chroma_hps_16xN for high bit depth: 2018-04-07: [email protected] However ffmpeg keeps saying that profile=main10 is an unknown option. An example of HEVC 10-bit encoding can also be found in the attached code sample. "Our previous experience with x264 has been great and that made us license MulticoreWare's x265 encoder," said Vlado Struhar, founder of IN2CORE. Mulan (2020) (1080p DSNP WEB-DL x265 HEVC 10bit EAC3 5. The same is true for 12-bit, in principle, but the extra resolution over 10-bit shouldn't be significant for normal end-use. Its purpose is to replace the JPEG image format when quality or file size is an issue. If you have a HW decoder that can deal with 10 bit, displaying it on an 8 bit display (like. - x265 10-bit and 12-bit They admit that internally, the video pipeline is still 8-bit 4:2:0, so let's assume you have a 16-bit half float 4:4:4 source (which would be a very high quality source) and you wanted to output 10-bit x264, it would "step down" your source to 8-bit 4:2:0 then feed it to libx264 and it in turn would encode it as 10-bit. 072 Stream size : 100 MiB (61%) Writing library : x265 2. 0) built on Sep 6 2016, gcc: 6. Clark Kent| one of the last of an extinguished race disguised as an unremarkable human| is forced to reveal his identity when Earth is invaded by an army ofsurv Man. Both outputs are 1280x720. There are x265, x265 12-bit, and x265 10-bit. x265 multilib build script for x86-64 Windows EXE in media-autobuild suite's MSYS2/MinGW64 mintty shell - makehdr10_w64-git. There are usually three color channels, so that makes a bit depth of 24 bits per pixel, which is also the most commonly used bit depth of modern desktop PCs. mkv File size : 359 MiB Duration : 42 min 6 s Overall bit rate : 1 191 kb/s The. Among the factors affecting depth is the minimum price increment at which trades can be made (the. exe,libx265_main. For bit depth the maximum bit rate increases by 1. 0 ('Trust / Lust') 64bit. mkv only on ettv. 0 @ 269 kb/s), English subtitles (from other source) and Chapters. Atmos-DEPTH. Now, you can use a higher bit depth for video encoding, and x264 currently allows up to 10 bits per. 12 and higher SHA256 checksum. Image Depth, Bit Depth, & Deep Color Image Support. mkv ETTV torrent download - Free Download of Mortal Kombat 2021 1080p 10bit WEBRip Hindi English AAC 5. It will shift and mask input pixels as required to reach the internal depth. Set at the intersection of the near future and the reimagined past| explore a world in which every human appetite can be indulged without consequence. 5+1-ce882936d:[Windows][MSVC 1928][64 bit] 10bit. x265-DEPTH [IMG] Rating: 7. Download Lost Girl S04 720p x265-ZMNT - ETTV torrents or Home; Torrents Overall bit rate : 1 367 kb/s Lost. Just set the hairline indicator for the distance you need from the fence to the center of the bit, hook it onto the bit shank, then slide the fence over until it touches the gauge. 264 High 10 Profile (10-bit color depth) encoding since quite a long time ago. 8+42-8bf51aa8a170:[Windows][MSVC 1900][64 bit] 10bit. Overall bit rate : 1 725 kb/s. com so we can build better products. In order to understand additional details about 8-bit vs. Overall bit rate : 1 117 kb/s The. x265 still suffers too much from that when using 8 bit. are you sure? here's the transcoder log when converting 10-bit input with a "allow output in 10-bit color depth" on. - Video parameters: Bit depth: 10. In order to represent the span between the highest and lowest point of a waveform in digital audio we create a equally distributed scale of numbers. Overall bit rate : 1 405 kb/s Jurassic Park 5 Movie Collection x265 [info]: Main 10 profile, Level-5 (Main tier) x265 [info]: Thread pool created using 12 threads x265 [info]: frame threads / pool features : 3 / wpp(27 rows) x265 [info]: Internal bit depth : 10 Thanks all!. mkv ETTV torrent download - Free Download of Mortal Kombat 2021 1080p 10bit WEBRip Hindi English AAC 5. For bit depth the maximum bit rate increases by 1. Invincible (2021) Season 1 S01 (1080p WEB-DL x265 HEVC 10bit EAC3 5. 9+3 - all of them failed to download (tojan: Win32/Spursint. avi -t 10 -f yuv4mpegpipe - | ~/ffmpeg_build/bin/x265 --y4m - --vbv-maxrate. 976fps) 19:14:38. Jan 24th, 2016. Deep securities tend to be highly liquid and can be bought or sold in large quantities without their prices greatly moving in either direction. Since a video is better than words, watch this : YUV Chroma subsampling : 4:2:0 Bit depth : 8 bits Bits/(Pixel*Frame) : 0. Attorney Chuck Rhoades goes after hedge fund king, Bobby "Axe" Axelrod in a battle between two powerful New York figures. Systems of higher audio bit depths are able to express more possible values: 16-bit: 65,536 values. This section does not include animated or TV/documentary films, it does however include black & white movies. mkv File size : 363 MiB Duration : 38 min 42 s Overall bit rate : 1 311 kb/s Raising. 0][64 bit] 8bit+10bit+12bit x265 [info]: using cpu capabilities: MMX2 SSE2Fast SSSE3 SSE4. We recently got our hands on a pre-alpha build of. 1 English] MSubs ~ TombDoc. This tells x265 to evaluate lossless encoding as an option at the CU level. The same is true for 12-bit, in principle, but the extra resolution over 10-bit shouldn't be significant for normal end-use. 1 Hindi + DD 5. Overall bit rate : 1 413 kb/s Encoded date : UTC 2019-11-07 06:45:54 Writing application : mkvmerge v38. x265 can encode 10 bit from 8 bit source so it can be used even with vanilla VirtualDub. from https://encoder. Find changesets by keywords (author, files, the commit message), revision number or hash, or revset expression. 301 Moved Permanently. $ x264 --version x264 0. pc file will be installed to; Verify the NASM_EXECUTABLE property is pointing the location where you installed NASM. 5 + libmatroska v1. The Marksman (2021) IMDB 5. Your input doesn't matter much what bit depth it has (8 or 10) do note that a lot of gear still doesn't support 10 bit yet, computers excluded. 0+54-e5ca9b210223:[Windows][MSVC 1900][64 bit] 10bit. mkv -pix_fmt yuv420p10le -c:v libx265 -crf 28 -x265-params profile=main10 out. Mulan (2020) (1080p DSNP WEB-DL x265 HEVC 10bit EAC3 5. Windows 7 Professional SP1 with all last updates. Mortal Kombat 2021 1080p 10bit WEBRip Hindi English AAC 5. 5Mbit, x265 nearly reaches quality transparency when compared to the original, something x264 falls short of, just a bit. Find changesets by keywords (author, files, the commit message), revision number or hash, or revset expression. 52 has improved 10-bit color depth encoding. Ubuntu - Set bit depth in FFmpeg encoding for HEVC. 1 English] MSubs ~ TombDoc. x265 source code is written in C++ and assembly. raw download clone embed print report. I also tried using BM3D and a refined combination of the two but it was just too slow. Being a precise shooter is always paying off, but there are times when you might need higher bit depth (or "deeper bit depth") files. 220: VO: [lavc] 1280x720 yuv420p10 19:14:41. you'd get much less banding in your encode in 10 bit. yes it creates x265. 10bit remove posterisation, it’s a revolution, it’s important to export all your projects in 10bit. x265-DEPTH[rartv]. If downshifting is being performed using our CLI application (to 8 bits), the --dither option may be enabled to reduce banding. x265 source code is written in C++ and assembly. Solution here is to try latet version first, if it did not work, try older version, say try 1 month old version, if that did not work, go. Atmos-DEPTH. Página principal. 10-bit would be needed with HDR videos. Hindi-English. If you happen to have some 10bpp video contents and a powerful box, you can do some insanely highly quality 10bpp HEVC transcoding with x265 and NVENC (requires Geforce GTX 10XX). 3 with 10 bit or High Bit Depth, however IFME use force 8 bit encoding, because High Bit Depth not yet fully optimized for performance, however this can adjust by enable "Use auto detect" or forced 10 bit (will cause 8 bit input will encode into 10 bit). 9+3 GCC 64 bit 12 bit 1. x265 will accept input pixels of any depth between 8 and 16 bits regardless of the depth of its internal pixels (8 or 10). For importing high bit depth video AviSynth 2. HEVC-PSA Son. Similar to the sample rate it is safe to say how higher the bit depth how better the sound quality. NVIDIA NVDEC-accelerated H. /x265 --version x265 [info]: HEVC encoder version 0. 265/HEVC (x265) files, Fully self-contained, *no* additional Codecs or Plugin's are required, 64-Bit as well as 32-Bit encoder binaries are fully supported, Optionally the "high bit-depth" encoder variants can be selected,. 265(x265) is enough. 6 GB | Uploaded by iAHD on 2021-03-13 02:47:39 UTC | #398371. Among the factors affecting depth is the minimum price increment at which trades can be made (the. If the requested bit depth is not the bit depth of the linked libx265, it will attempt to bind libx265_main for an 8bit encoder, libx265_main10 for a 10bit encoder, or libx265_main12 for a 12bit encoder, with the same API version as the linked libx265. mkv File size : 494 MiB Duration : 40 min 56 s Overall bit rate : 1 688 kb/s. Our Center/Depth Gauge makes setting both easy and accurate. 5:[Linux][GCC 7. Enjoy and Seed as much as possible! Media Information. Complete name : Tenet. Bit depth is the amount of color information contained in each pixel in an image. 8+219 (bit-depth 8-12) Jan-20-2016. Main Profile (MP): Originally intended as the mainstream consumer. Most professional cameras top out at 10-bit. Examples of typical values are: CD Audio - 44,100 Hz sample rate, 16-bit word depth, 2-channel (stereo) DAT - 48,000 Hz sample rate, 16-bit word depth, 2-channel (stereo) BWF - Although this can be any. 5 + libmatroska v1. The CRF videos were done via Handbrake using x265 10-bit, whereas everything else was done via ffmpeg using x265 or x264 8-bit. be/Bpu7_n6rkY4http://www. Microsoft Security Essentials version: 1. Clearly the device is capable of 10-Bit color if. mkv File size : 476 MiB Duration : 42 min 38 s Overall bit rate : 1 560 kb/s. However ffmpeg keeps saying that profile=main10 is an unknown option. 709 Transfer characteristics : BT. can a 4k x265 HEVC 10bit MKV file be converted to an 8bit MP4 successfully? jjrjr1 November 24, 2016, 6:42pm. 1 x265 HEVC - MoviePirate - Telly. 000 Frame rate mode : Constant Frame rate : 23. x265-DEPTH[rartv]. To put it simply, bit depth decides how much information can be stored in a frame. Some key features of the Simple x264/x265 Launcher software include: Support for creating H. Now this is an apples to oranges comparison. 678: (+) Video --vid=1 (*) (h264 1280x720 23. 0][64 bit] 10bit Color range : Full Color primaries : BT. I wanted to know something about the actual x265 development state and since I didn’t find anything up to date I decided to do my own tests. 220: VO: [lavc] 1280x720 yuv420p10 19:14:41. 000 FPS Color space : YUV Chroma subsampling : 4:2:0 Bit depth : 8 bits Bits/(Pixel*Frame) : 0. Overall bit rate : 1 229 kb/s Encoded date : UTC 2021-02-11 05:01:19 Writing application : mkvmerge v51. 1 x265 HEVC - MoviePIrate - Telly. BPG Image format News (Apr 21 2018) Release 0. 2/10 based on 394,088 user ratings Genres: Action, Adventure, Drama, Romance A greedy film producer assembles a team of moviemakers. Hindi-English. While x265 does the outlines and the steam part quite like in the original frame, x264 rips the outlines apart a bit too much, and slight block artifacts can again be seen for the steam part. Most professional cameras top out at 10-bit. The standard includes the following seven sets of capabilities, which are referred to as profiles, targeting specific classes of applications:. Video ID : 1 Format : HEVC Format/Info : High Efficiency Video Coding Format profile : Main [email protected]@Main Codec ID : V_MPEGH/ISO/HEVC Duration : 23 min 42 s Bit rate : 3 132 kb/s Width : 1 920 pixels Height : 1 080 pixels Display aspect ratio : 16:9 Frame rate mode : Constant Frame rate : 23. Color depth. 265 standard was officially published. Just change "Color Space" option from default I420 to I420 10-bit or I444 10-bit and you are ready. The standard includes the following seven sets of capabilities, which are referred to as profiles, targeting specific classes of applications:. Its purpose is to replace the JPEG image format when quality or file size is an issue. Still, we get a good idea of where these show up. 7+259-5e2043f89aa1 x265 [info]: build info [Linux][GCC 4. 265 to 8-bit H. Normally, 12-bit doesn't really exist outside of super-high-end movie production. Facebook: https://www. It will shift and mask input pixels as required to reach the internal depth. x265-DEPTH[rartv]. The crucial option here is: -pix_fmt yuv420p. However, due to the lack of good and free decoder and player for this profile, I haven’t seriously test with it until today. 9+3 GCC 64 bit 12 bit 1. Being a precise shooter is always paying off, but there are times when you might need higher bit depth (or "deeper bit depth") files. While x265 does the outlines and the steam part quite like in the original frame, x264 rips the outlines apart a bit too much, and slight block artifacts can again be seen for the steam part. Find changesets by keywords (author, files, the commit message), revision number or hash, or revset expression. 1 Silence) The Vampire Diaries (2009) Season 1-8 (1080p BluRay x265 HEVC 10bit AAC 5. #4K #Windows #VLC4KFixThroughout the holiday period, Audiio are offering their Lifetime music subscription for $199 with the discount code "holiday": https:/. raw download clone embed print report. 1 Hindi + DD 5. Builds x265 three times, once for each bit depth. 264 Profiles. exe with those bit depths and are used by those who prefer to encode their own video files. Format version : Version 4. 6+8-fc0570b8d8f9:[Windows][MSVC 1911][64 bit] 10bit. XJ) In x265 HEVC 720p General Format : Matroska Format version : Version 4 / Version 2 File size : 35 - 60 MiB Overall bit rate : 289 Kbps Video Format : HEVC. mkv File size : 359 MiB Duration : 42 min 6 s Overall bit rate : 1 191 kb/s The. (1) 8 bit-depthなx265. 3 with 10 bit or High Bit Depth, however IFME use force 8 bit encoding, because High Bit Depth not yet fully optimized for performance, however this can adjust by enable "Use auto detect" or forced 10 bit (will cause 8 bit input will encode into 10 bit). Summary: Astronomer Carl Sagan leads us on an engaging guided tour of the various elements and cosmological theories of the universe. 709 Matrix coefficients : BT. GCC 64 bit 8 bit 1. 0+54-e5ca9b210223:[Windows][MSVC 1900][64 bit] 10bit. 1 Vyndros) DARK Season 1-3 (1080p + 2160p NF WEB-DL x265 HEVC 10bit AAC 5. The output file demonstrated a successful conversion to 8bit: If you can try and avoid re-encoding in this manner though, better to. Anyone else having this issue? I find it weird that 10-Bit works on x264, but not x265. Windows 7 Professional SP1 with all last updates. 2 AVX XOP FMA4 FMA3 LZCNT BMI1 [email protected]~$. mkv File size : 359 MiB Duration : 42 min 6 s Overall bit rate : 1 191 kb/s The. Similar to the sample rate it is safe to say how higher the bit depth how better the sound quality. 1 Silence) The Vampire Diaries (2009) Season 1-8 (1080p BluRay x265 HEVC 10bit AAC 5. Image Depth, Bit Depth, & Deep Color Image Support. x265-DEPTH Encodes in the resolution 1080p from retail (BluRay, HDDVD) sources, with one or more English audio tracks only. 9+3 – all of them failed to download (tojan: Win32/Spursint. mkv Uses the format filter to choose the yuv420p pixel format to create 8-bit output. x265 supports the Main, Main 10, Main 12 and Main Still Picture profiles of HEVC (including intra-only profiles), utilizing a bit depth of either 8 bits or 10 bits per sample YCbCr with 4:2:0, 4:2:2 or 4:4:4 chroma subsampling. Jan 24th, 2016. Bit depth : 8 bits Writing library : x264 Audio Format : Vorbis Bit rate : 48. Verified This commit was created on GitHub. x265-ZMNT-----American. exe --log-level full -h. Convert 10-bit H. please help me. mkv File size : 611 MiB. 062 Stream size : 1. 0][64 bit] 10bit. You need to scale up the input pixels by 16 for. 265 and MPEG-H Part 2, is a video compression standard designed as part of the MPEG-H project as a successor to the widely used Advanced Video Coding (AVC, H. Patch Date Submitter Delegate State [x265,253,of,307] x86: AVX512 optimise chroma_hps_16xN for high bit depth: 2018-04-07: [email protected] 1+1-b5c86a64bbbe:[Windows][GCC 9. tvEn este video se explica la profundidad de bits, o bit depth. Bit rate : 19. Bit depth is a basic system that defines the extent of color tones that can be reached by a printer. 024 Stream size : 426 MiB (85%) Writing library : x265 2. As a result, a few games that require 32-bit color will not run on the Intel 82810 or 82815 graphics controllers. 062 Stream size : 1. Check the capability of your installed version of x265 for 8bit encoding as follows: [email protected]~$ x265 -V x265 [info]: HEVC encoder version 2. Mercurial > x265 changeset 4243: dc29fa3c38ac draft Find changesets by keywords (author, files, the commit message), revision number or hash, or revset expression. Mulan (2020) (1080p DSNP WEB-DL x265 HEVC 10bit EAC3 5. Round 07 - Monaco Review (2702mb 3840x2160 7178kbps x265 10bit-deef). Latest version 0. Overall bit rate : 1 117 kb/s The. 9+3 VC12 64 bit 8 bit 1. Facebook: https://www. mkv ETTV torrent download - Free Download of Mortal Kombat 2021 1080p 10bit WEBRip Hindi English AAC 5. 0][64 bit] 10bit Color range : Full Color primaries : BT. Now this is an apples to oranges comparison. 6 are usually good enough to mostly get rid of fine background noise in conjunction with x265's smoothing parameters (strong intra smoothing and sao). 10bit remove posterisation, it’s a revolution, it’s important to export all your projects in 10bit. for example:-. Now, if I hadn’t hardcoded the dithering for the 10-bit encode and instead passed a high-bit-depth picture to x264, it would’ve resulted in. raw download clone embed print report. 679: Audio --aid=1 (*) (aac 2ch 44100Hz) 19:14:41. 0][64 bit] 10bit. The results are, the 8bit output was smaller. It will shift and mask input pixels as required to reach the internal depth. 097 Stream size : 7. Bit depth is the amount of color information contained in each pixel in an image. Find changesets by keywords (author, files, the commit message), revision number or hash, or revset expression. NOTES: (1) x265 was unable to reach 60 FPS for a single 4K channel, achieving just 35 FPS at comparable quality. For example, 8-bit color and 24-bit color often mean the same thing (see table below). x (libswscale 3. In the case of H. Also not forget update to latest x265 commit! 11/Jan/2014: Glad to release IFME 3. 1 KHz Compression mode : Lossy Season 4 (By PSA rips Thanks To Dr. are you sure? here's the transcoder log when converting 10-bit input with a "allow output in 10-bit color depth" on. Now, you can use a higher bit depth for video encoding, and x264 currently allows up to 10 bits per. The Hollow Crown (2012) Season 1 S01 + Extras (1080p BluRay x265 HEVC 10bit AAC 5. mkv only on ettv. As the amount of bits increase, the clarity of prints increase as well. Download November Story S01 2021 1080p 10bit WEBRip Hindi AAC 5 1 x265 HEVC - MoviePirate - Telly - ETTV torrents Overall bit rate : 2 378 kb/s Bit depth : 10. 301 Moved Permanently. mkv ETTV torrent download - Free Download of Army of the Dead 2021 1080p 10bit NF WEBRip Hindi English AAC 5. 0/10 based on 687,649 user ratings Genres: Action, Adventure, Sci-Fi An alien child is evacuated from his dying world and sent to. Overall bit rate : 1 117 kb/s The. 4 12 votes PSA User Rating The Ultimate Fighting Championship (UFC) is an American mixed martial arts organization based in Las Vegas, Nevada, that is owned and operated by parent company William Morris Endeavor. 220: VO: [lavc] 1280x720 yuv420p10 19:14:41. Suggest you stick to the regular presets. 1 x265 HEVC - MoviePIrate - Telly. In order to understand additional details about 8-bit vs. Well, HEVC encoding is the encoding standard used for 4K UHD Blu-rays, so it could be equal, but you’re missing some information. 9+3 – all of them failed to download (tojan: Win32/Spursint. In the consumer world, except for specific high-end home cinema, everything is 8-bit. VAAPI MJPEG and VP8 decoding. 301 Moved Permanently. 0 @ 269 kb/s), English subtitles (from other source) and Chapters. Download Lost Girl S04 720p x265-ZMNT - ETTV torrents or Home; Torrents Overall bit rate : 1 367 kb/s Lost. If you happen to have some 10bpp video contents and a powerful box, you can do some insanely highly quality 10bpp HEVC transcoding with x265 and NVENC (requires Geforce GTX 10XX). 264 and HEVC encoders. 220: VO: [lavc] 1280x720 yuv420p10 19:14:41. exe,libx265_main10. 9+3 VC12 64 bit 8 bit 1. 220: [vo/lavc] Opening encoder. 976 (24000/1001) FPS Color space : YUV Chroma subsampling : 4:2:0 Bit depth : 10 bits Bits/(Pixel*Frame) : 0. 1 x265 HEVC - MoviePirate - Telly. 0 ('The Silent Type') 64-bit Writing library : libebml v1. Anyone else having this issue? I find it weird that 10-Bit works on x264, but not x265. 1 Vyndros) Plot: U. The video track of the 8-bit encode has 275 MiB, while the 10-bit encode has no more than 152 MiB and doesn’t look worse at all – in fact, it even looks better than the much larger 8-bit encode. Jouni Ohtamaa wrote: Apparently, video with a h265 codec cannot be rendered in 10-bit format. NVIDIA NVDEC-accelerated H. The results are, the 8bit output was smaller. x265 Channels Test - RESULTS. Overall bit rate : 1 229 kb/s Encoded date : UTC 2021-02-11 05:01:19 Writing application : mkvmerge v51. ffmpeg hevc video conversion. rzcat commented on Mar 9, 2017 •. A single bit can best described as sort of an ON/OFF switch. 0 ('Duel with the Devil') 64-bit Writing library : libebml v1. com - Photoshop Tutorial - Difference of 8-Bit and 16-Bit Bit Depth - This Adob. dll (2) 10 bit-depthなx265. (alternatively finding a superfast (more than 90fps) codec/param for doing my encoding in a second step on ffmpeg, but it’s a bit stupid) Image quality of libx265 10bit (for 8bit display and 8bit video source) is WAY BETTER than x265 8bit. x265 HEVC 8-Bit (color depth) encoded files - PASS. Bit depth, or Color depth, refers to the number of bits used for each color component of a single pixel. Complete name : Magnum. Bit depth : 10 bits Bits/(Pixel*Frame) : 0. Find changesets by keywords (author, files, the commit message), revision number or hash, or revset expression. answered Jun 29 '20 at 17:25. While x265 does the outlines and the steam part quite like in the original frame, x264 rips the outlines apart a bit too much, and slight block artifacts can again be seen for the steam part. 7 GB | Uploaded by iAHD on 2021-05-22 21:08:23 UTC | #414205. mkv Format : Matroska Format version : Version 4 File size : 332 MiB Duration : 42 min 56 s Overall bit rate : 1 082 kb/s Movie name : BvSRips Encoded date : UTC 2020-12-13 20:08:04 Writing application : mkvmerge v46. x265 HEVC 10-Bit (color depth) encoded files - FAIL. This tells x265 to evaluate lossless encoding as an option at the CU level. Main Profile (MP): Originally intended as the mainstream consumer. 1 GB | Uploaded by iAHD on 2021-05-22 20:48:51 UTC | #414203. -x265-params level=5. 6+8-fc0570b8d8f9:[Windows][MSVC 1911][64 bit] 10bit. args-append -DHIGH_BIT_DEPTH=ON to enable > 8 bit video. It seems that the problem is that frames are duplicated by ffmpeg. 21 GiB (96%) Writing library : x265 3. 4 for Intel macOS 10. avi -t 10 -f yuv4mpegpipe - | ~/ffmpeg_build/bin/x265 --y4m - --vbv-maxrate. exe with those bit depths and are used by those who prefer to encode their own video files. Find changesets by keywords (author, files, the commit message), revision number or hash, or revset expression. In its current form, h265 rendering is useless, for me. Clark Kent| one of the last of an extinguished race disguised as an unremarkable human| is forced to reveal his identity when Earth is invaded by an army ofsurv Man. Verified This commit was created on GitHub. Still, we get a good idea of where these show up. 0 ('I Wish') 64-bit. mkv Format : Matroska Format version : Version 4 File size : 1. Applications like ffmpeg and the x265 CLI which use our bit-depth introspection API (x265_api_get) instead of the globally exported C interface can select between 8 and 10bit libx265 libraries at runtime. Low values for h like 0. If you happen to have some 10bpp video contents and a powerful box, you can do some insanely highly quality 10bpp HEVC transcoding with x265 and NVENC (requires Geforce GTX 10XX). 1 SAMPA) 5/2/2021. Bit depth : 10 bits Bits/(Pixel*Frame) : 0. I wanted to know something about the actual x265 development state and since I didn’t find anything up to date I decided to do my own tests. However ffmpeg keeps saying that profile=main10 is an unknown option. 2/10 based on 394,088 user ratings Genres: Action, Adventure, Drama, Romance A greedy film producer assembles a team of moviemakers. - Video parameters: Bit depth: 10. Find changesets by keywords (author, files, the commit message), revision number or hash, or revset expression. Microsoft Security Essentials version: 1. Current systems use 8 bits per color, resulting in 28=256 different shades for each primary color (red, green and blue, respectively). Anime - Dub | 23. The results are, the 8bit output was smaller. MediaCoder has supported H. 0][64 bit] 8bit+10bit. 265 / x265 video quality : very high (95 - 99%) audio quality : standard tv release. #4K #Windows #VLC4KFixThroughout the holiday period, Audiio are offering their Lifetime music subscription for $199 with the discount code "holiday": https:/. 0][64 bit] 8bit+10bit+12bit. Assuming you are encoding for end use, the benefit will depend on the source material and the display medium. FFmpeg is now supporting 10-bit and 12-bit encoding for x265, But I couldn't find the proper command line options for encode them in those bit depths. Just set the hairline indicator for the distance you need from the fence to the center of the bit, hook it onto the bit shank, then slide the fence over until it touches the gauge. 9+3 - all of them failed to download (tojan: Win32/Spursint. Video Bit Depth: 8 it does state 8bit. 0][64 bit] 8bit+10bit+12bit. Your input doesn't matter much what bit depth it has (8 or 10) do note that a lot of gear still doesn't support 10 bit yet, computers excluded. That is much more than the 10. x265 is available under the open source GNU GPL v2 license, providing many benefits over competing proprietary encoders. Format : Matroska. 6 GB | Uploaded by iAHD on 2021-03-13 02:47:39 UTC | #398371. 7+259-5e2043f89aa1 x265 [info]: build info [Linux][GCC 4. x265 can encode 10 bit from 8 bit source so it can be used even with vanilla VirtualDub. 9+3 VC12 64 bit 8 bit 1. 264/AVC (x264) and H. Not a member of Pastebin yet? Sign Up, it unlocks many cool features! text 15. Can someone specify that options? Best Answer. Jan 24th, 2016. 1 SAMPA) 5/2/2021. Enjoy and Seed as much as possible! Media Information. ts -c:v libx265 -preset medium -x265-params "profile=main10:crf=30" -c:a aac strict experimental -b:a 128k output. However ffmpeg keeps saying that profile=main10 is an unknown option. 976 (24000/1001) FPS Color space : YUV Chroma subsampling : 4:2:0 Bit depth : 10 bits Bits/(Pixel*Frame) : 0. 5× for 4:2:2 profiles and 2× for 4:4:4 profiles. This will require re-encoding with thus some loss of quality but a recent copy of FFmpeg will allow you to convert to 8bit hevc from 10bit quite easily. HEVC-PSA UFC. mkv Format : Matroska Format version : Version 4 File size : 332 MiB Duration : 42 min 56 s Overall bit rate : 1 082 kb/s Movie name : BvSRips Encoded date : UTC 2020-12-13 20:08:04 Writing application : mkvmerge v46. mkv -pix_fmt yuv420p10le -c:v libx265 -crf 28 -x265-params profile=main10 out. Patch Date Submitter Delegate State [x265,253,of,307] x86: AVX512 optimise chroma_hps_16xN for high bit depth: 2018-04-07: [email protected] 679: Audio --aid=1 (*) (aac 2ch 44100Hz) 19:14:41. "Our previous experience with x264 has been great and that made us license MulticoreWare's x265 encoder," said Vlado Struhar, founder of IN2CORE. Both outputs are 1280x720. This will require re-encoding with thus some loss of quality but a recent copy of FFmpeg will allow you to convert to 8bit hevc from 10bit quite easily. Color depth is also known as bit depth, and is the number of bits used to display the color of a single pixel. Format : Matroska. Now, you can use a higher bit depth for video encoding, and x264 currently allows up to 10 bits per. Check the capability of your installed version of x265 for 8bit encoding as follows: [email protected]~$ x265 -V x265 [info]: HEVC encoder version 2. Summary: Astronomer Carl Sagan leads us on an engaging guided tour of the various elements and cosmological theories of the universe. mkv File size : 494 MiB Duration : 40 min 56 s Overall bit rate : 1 688 kb/s. There are usually three color channels, so that makes a bit depth of 24 bits per pixel, which is also the most commonly used bit depth of modern desktop PCs. x265 can encode 10 bit from 8 bit source so it can be used even with vanilla VirtualDub. 3 with 10 bit or High Bit Depth, however IFME use force 8 bit encoding, because High Bit Depth not yet fully optimized for performance, however this can adjust by enable "Use auto detect" or forced 10 bit (will cause 8 bit input will encode into 10 bit). 265 standard was officially published. 265 offers a substantially increased compression ratio without compromising the video quality level. 0][64 bit] 10bit Color range : Full Color primaries : BT. Loading branch information; jstebbins committed Nov 6, 2017. answered Jun 29 '20 at 17:25. com and signed with a verified signature using GitHub's key. Optionally the "high bit-depth" encoder variants can be selected. FFmpeg Static Build Files for Educational Purposes Only Download FFmpeg 4. 264 and HEVC encoders. -preset fast \. ) Use an x265 binary that does only 10 bit. 4 12 votes PSA User Rating The Ultimate Fighting Championship (UFC) is an American mixed martial arts organization based in Las Vegas, Nevada, that is owned and operated by parent company William Morris Endeavor. 1 English] MSubs ~ TombDoc. The problem is, that if the program changes the bit depth to one that is different to the desktop''s bit depth (ie the bit depth is 32 and you set 16) then you get nothing/the wrong colours. mkv File size : 494 MiB Duration : 40 min 56 s Overall bit rate : 1 688 kb/s. 9+3 GCC 64 bit 12 bit 1. Its purpose is to replace the JPEG image format when quality or file size is an issue. To use it as a height gauge, simply set it at your bit height, lay the foot flat on the table and raise. 1 Vyndros) DARK Season 1-3 (1080p + 2160p NF WEB-DL x265 HEVC 10bit AAC 5. 1 x265 HEVC - MoviePIrate - Telly. Check the HIGH_BIT_DEPTH for 10-bit; Set the CMAKE_INSTALL_PREFIX to a directory the x265 lib, headers, and importantly the pkg-config. Facebook: https://www. Format : Matroska. Video Bit Depth: 8 it does state 8bit. x265 source code is written in C++ and assembly. 5 Video ID : 1. "Our previous experience with x264 has been great and that made us license MulticoreWare's x265 encoder," said Vlado Struhar, founder of IN2CORE. I wanted to know something about the actual x265 development state and since I didn’t find anything up to date I decided to do my own tests. First of all I compiled a recent snapshot of x265:. Bit depth : 10 bits Bits/(Pixel*Frame) : 0. On 10-bit (Foodmarket) results are even larger. I agree with Daniel that this is the best solution - if you want a higher bit depth, it's easily selectable. To support this both libraries must be available either as shared libraries or as a pair of static libraries. 1 GB | Uploaded by iAHD on 2021-05-22 20:48:51 UTC | #414203. x265 still suffers too much from that when using 8 bit. make && make install. High Efficiency Video Coding (HEVC), also known as H. 10-bit colors, a concept called ‘color depth’ is outlined as follows. 3 with 10 bit or High Bit Depth, however IFME use force 8 bit encoding, because High Bit Depth not yet fully optimized for performance, however this can adjust by enable "Use auto detect" or forced 10 bit (will cause 8 bit input will encode into 10 bit). mkv ETTV torrent download - Free Download of Mortal Kombat 2021 1080p 10bit WEBRip Hindi English AAC 5. 0][64 bit] 8bit+10bit+12bit x265 [info]: using cpu capabilities: MMX2 SSE2Fast SSSE3 SSE4. There are usually three color channels, so that makes a bit depth of 24 bits per pixel, which is also the most commonly used bit depth of modern desktop PCs. Google Drive - King. 264 Profiles. 10bit depth produce better quality n compression etc but requires more cpu power n its getting more popular now. txt file as well, perhaps you know if they are valuable enough to include. Ubuntu - Set bit depth in FFmpeg encoding for HEVC. To use it as a height gauge, simply set it at your bit height, lay the foot flat on the table and raise. This is measured in bits. 265 12 bit video? Use can use the following codec parameters: -x265-params lossless=1 -pix_fmt yuv444p12le for lossy 12 bpc encoding. 0 "Wu", a new major release, is now available! Some of the highlights: Bitstream filters for editing metadata in H. Still, we get a good idea of where these show up. Bit depth is a basic system that defines the extent of color tones that can be reached by a printer. exe,libx265_main10. The second aspect about how BT. 1 Vyndros) Plot: U. 0][64 bit] 10bit Color range : Full Color primaries : BT. MulticoreWare's x265 software encoder is used by QTAKE's STREAM module for high bit depth encoding, low bitrate & low latency for live streaming videos up to 4K resolution. Maybe, it’s false positive virus detection, but I don’t want to test it myself. An example of HEVC 10-bit encoding can also be found in the attached code sample. x265 will accept input pixels of any depth between 8 and 16 bits regardless of the depth of its internal pixels (8 or 10). Bit depth : 10 bits Bits/(Pixel*Frame) : 0. When I encode directly with x265, it works fine and encodes all 250 frames: ffmpeg -i sintel_02. 5× for 4:2:2 profiles and 2× for 4:4:4 profiles. - Video parameters: Bit depth: 10. At both CRF 24 and CRF 22, even the lowest frames don’t dip below SSIM 0. Overall bit rate : 1 640 kb/s Encoded date : UTC 2018-01-15 06:31:58 Writing application : mkvmerge v15. 1) Traditional HD Blu Ray x264 encodes have a native bit depth of 8 bits (24 bits per pixel) 2) x265 10 bit encodes of 8 bit sources have value because they (a) can produce a smaller output file and (b) reduce banding because high-bandwidth differing is not needed to simulate colours beyond 8 bits (which seems to imply this is what the source x264 material does). Google Drive - King. mkv Format : Matroska Format version : Version 4 File size : 332 MiB Duration : 42 min 56 s Overall bit rate : 1 082 kb/s Movie name : BvSRips Encoded date : UTC 2020-12-13 20:08:04 Writing application : mkvmerge v46. On x265/HEVC videos, the seek is slow with VLC (more or less 2 seconds) but not with MPC-HC which is instantaneous. Most professional cameras top out at 10-bit. NOTES: (1) x265 was unable to reach 60 FPS for a single 4K channel, achieving just 35 FPS at comparable quality. x265-DEPTH Encodes in the resolution 1080p from retail (BluRay, HDDVD) sources, with one or more English audio tracks only. Now, you can use a higher bit depth for video encoding, and x264 currently allows up to 10 bits per. The Marksman (2021) IMDB 5. Mulan (2020) (1080p DSNP WEB-DL x265 HEVC 10bit EAC3 5. args-append -DHIGH_BIT_DEPTH=ON to enable > 8 bit video. Not a member of Pastebin yet? Sign Up, it unlocks many cool features! text 15. However ffmpeg keeps saying that profile=main10 is an unknown option. Bit depth : 10 bits Bits/(Pixel*Frame) : 0. Ubuntu - Set bit depth in FFmpeg encoding for HEVC. 1 Silence) Cosmos (1980) - S01E01 - The Shores of the Cosmic Ocean (1080p x265 Silence). – Gyan Apr 19 '16. 265 / x265 VIDEO QUALITY : VERY HIGH (95 - 99%) AUDIO QUALITY : STANDARD TV Release SIZE : 80MB ~ 100MB. 1 x265 HEVC - MoviePirate - Telly. 1 RCVR) Media Information Code: General Format : Matroska Format version : Version 4 / Version 2 File size : 3. This Deck Jig™ drill bit and the KTX driver bit that came with your Deck Jig™ are fully compatible with standard 1/4" (6mm) Quick-Change chucks. x265 HEVC 10-Bit (color depth) encoded files - FAIL. x265 supports the Main, Main 10, Main 12 and Main Still Picture profiles of HEVC (including intra-only profiles), utilizing a bit depth of either 8 bits or 10 bits per sample YCbCr with 4:2:0, 4:2:2 or 4:4:4 chroma subsampling. As a result, a few games that require 32-bit color will not run on the Intel 82810 or 82815 graphics controllers. The number of bits used to represent each color determines the range of shades one can generate. (Of course that implies 8 bit processing) @lilycarolyn You can either: a. 265 / x265 VIDEO QUALITY : VERY HIGH (95 - 99%) AUDIO QUALITY : STANDARD TV Release SIZE : 80MB ~ 100MB. Similar to the sample rate it is safe to say how higher the bit depth how better the sound quality. In the case of H. from https://encoder. 072 Stream size : 100 MiB (61%) Writing library : x265 2. 1 Silence) The Vampire Diaries (2009) Season 1-8 (1080p BluRay x265 HEVC 10bit AAC 5. Bit depth : 10 bits Bits/(Pixel*Frame) : 0. 709 Matrix coefficients : BT. 022 Stream size : 2. Ubuntu - Set bit depth in FFmpeg encoding for HEVC. 1 English+German Joy). -c:v libx265 -pix_fmt yuv420p10le \. Suggest you stick to the regular presets. 6 GB | Uploaded by iAHD on 2021-03-13 02:47:39 UTC | #398371. What is 10-bit video? Should I shoot it over 8-bit video? In this video, Doug explores what's at the heart of this debate as he explains what bit depth is, a. 1 x265 HEVC - MoviePirate - Telly only on ettv. (I think the bitdepth should be specified regardless anyway. 8+42-8bf51aa8a170:[Windows][MSVC 1900][64 bit] 10bit. Bit depth, or Color depth, refers to the number of bits used for each color component of a single pixel. Main Profile (MP): Originally intended as the mainstream consumer. Bit depth : 10 bits Bits/(Pixel*Frame) : 0. Overall bit rate : 1 413 kb/s Encoded date : UTC 2019-11-07 06:45:54 Writing application : mkvmerge v38. 2 Just got curious of this x265 HEVC format, and tried it on a 1920x1080i BDMV stream video, one encoded with 8bit depth and then another encoded with 12bit depth. My command: ffmpeg -i vid. 017 Stream size : 2. mkv Format : Matroska Format version : Version 4 File size : 1. Suggest you stick to the regular presets. Mercurial > x265 changeset 4243: dc29fa3c38ac draft Find changesets by keywords (author, files, the commit message), revision number or hash, or revset expression. Download Lost Girl S04 720p x265-ZMNT - ETTV torrents or Home; Torrents Overall bit rate : 1 367 kb/s Lost. Well, 10-bit has 4 times the resolution of 8-bit, so yes, rounding errors will be smaller. By Chris Angelini July 23, 2013. 7+259-5e2043f89aa1 x265 [info]: build info [Linux][GCC 4. 265 this is a computationally intensive task. When I encode directly with x265, it works fine and encodes all 250 frames: ffmpeg -i sintel_02. 9+3 – all of them failed to download (tojan: Win32/Spursint. 264 High 10 Profile (10-bit color depth) encoding since quite a long time ago. 1 x265 HEVC - MoviePirate - Telly only on ettv. The Hollow Crown (2012) Season 1 S01 + Extras (1080p BluRay x265 HEVC 10bit AAC 5. This is also the * bit depth that x264 encodes in. 4 Mb/s Width : 3 840 pixels Height : 2 160 pixels Display aspect ratio : 16:9 Frame rate mode : Constant Frame rate : 24. If the input isn't already 10-bit, you have to first convert it, usually using -pix_fmt. x265 HEVC 8-Bit (color depth) encoded files - PASS. Your input doesn't matter much what bit depth it has (8 or 10) do note that a lot of gear still doesn't support 10 bit yet, computers excluded. For chroma sampling the maximum bit rate increases by 1. 『국내 및 해외 토렌트 사이트 총괄 담당 사이트』 인터넷의 시작 아메리카 리전 더토렌트 > 외국티비 | Media Information Media Information Code:General Format : Matroska Format version : Version 4 / Version 2 File size : 1 015 MiB Duration : 58 min 25 s Overall bit rate : 2 428 kb/s Encoded date : UTC 2020-10-12 18:36:00 Writing application : mkvmerge v51. x265 supports the Main, Main 10, Main 12 and Main Still Picture profiles of HEVC (including intra-only profiles), utilizing a bit depth of either 8 bits or 10 bits per sample YCbCr with 4:2:0, 4:2:2 or 4:4:4 chroma subsampling. ffmpeg hevc video conversion. 0+54-e5ca9b210223:[Windows][MSVC 1900][64 bit] 10bit. x265 will accept input pixels of any depth between 8 and 16 bits regardless of the depth of its internal pixels (8 or 10). Check the capability of your installed version of x265 for 8bit encoding as follows: [email protected]~$ x265 -V x265 [info]: HEVC encoder version 2. Página principal. In its current form, h265 rendering is useless, for me. In order to understand additional details about 8-bit vs. 0][64 bit] 10bit Color range : Full Color primaries : BT. Overall bit rate : 1 413 kb/s Encoded date : UTC 2019-11-07 06:45:54 Writing application : mkvmerge v38. Similar to the sample rate it is safe to say how higher the bit depth how better the sound quality. - 8bit-depth output (default) download this as the normal version - 10bit-depth output is for professional applications with specialised decoders - 10bit-depth output information links:. x265 HEVC 10-Bit (color depth) encoded files - FAIL. Its purpose is to replace the JPEG image format when quality or file size is an issue. Google Drive - King.